<?xml version="1.0" standalone="no"?>
<!DOCTYPE svg PUBLIC "-//W3C//DTD SVG 1.1//EN" "http://www.w3.org/Graphics/SVG/1.1/DTD/svg11.dtd">
<svg xmlns="http://www.w3.org/2000/svg">
<metadata>Copyright (C) 2019 by original authors @ fontello.com</metadata>
<defs>
<font id="oolong" horiz-adv-x="1000" >
<font-face font-family="oolong" font-weight="400" font-stretch="normal" units-per-em="1000" ascent="850" descent="-150" />
<missing-glyph horiz-adv-x="1000" />
<glyph glyph-name="teapot" unicode="&#xe800;" d="M269 308c47 62 100 115 168 150-2 1-5 4-7 5-7 5-11 10-10 18 0 7 0 12 0 18 0 6 1 11 6 13 5 5 11 9 16 12 9 5 18 10 27 15 2 4 3 9 4 14 7 26 21 48 38 67 23 26 52 45 84 58 32 15 66 23 100 30 19 3 38 4 58 8 3 0 5 1 7 1 0 2-1 4-1 4-26 50 3 111 59 128 40 11 83-3 106-35 21-28 23-59 10-89-2-3-2-4-3-6 3-3 5-2 8-3 45-5 88-13 131-28 33-12 64-27 91-50 23-20 43-43 54-72 2-7 5-16 9-23 18-4 34-12 49-25 5-3 8-8 12-13 4-5 6-11 5-17 0-2 0-3 0-3 2-8-2-15-9-19-5-4-9-7-14-10-3-2-5-3-7-4 4-4 23-17 31-22 1 2 4 5 5 7 28 37 59 70 96 97 20 15 39 26 61 36 52 21 101 17 150-7 31-16 57-40 76-68 25-36 41-75 48-118 5-24 8-50 5-76-5-53-17-106-40-154-32-67-83-116-148-152-13-7-27-14-41-20-4-1-7-3-8-8-10-41-27-77-50-110-4-5-8-7-14-7-199 0-397-1-596-1-138 0-278-2-417-2-56 0-111 0-165-1-6 0-10 1-12 8-27 45-46 94-55 147-3 12-4 26-5 38 0 4-2 9-4 13-57 111-112 223-166 336-1 3-2 6-6 8-1 1-2 2-4 3-4 4-4 9 0 12 4 4 8 7 13 8 9 5 19 6 29 7 18 1 37 1 54-2 6-1 11-4 17-6 4-2 8-4 9-7 2-3 7-7 11-9 42-30 83-59 126-89 3-1 5-3 9-5z m1114 41c0-1 0-1 2-1 1-2 2-4 4-5 23-24 43-49 61-76 13-23 25-46 32-71 9-34 17-70 19-105 0-4 2-6 2-11 3 2 4 3 7 5 23 17 43 37 61 60 47 60 69 128 58 205-2 12-5 25-9 37-6 16-14 31-24 44-6 9-15 17-23 23-20 16-43 21-68 16-18-3-34-12-49-22-32-24-55-55-71-92 0-5-2-6-2-7z" horiz-adv-x="1730" />

<glyph glyph-name="sm-bot" unicode="&#xe801;" d="M781 248a93 93 0 0 0-29 12 60 60 0 0 0-12 9l11 18a9 9 0 0 0 4 3 10 10 0 0 0 5 1 14 14 0 0 0 7-2l8-5a63 63 0 0 1 10-5 38 38 0 0 1 13-2 26 26 0 0 1 16 5 18 18 0 0 1 6 14 14 14 0 0 1-3 10 25 25 0 0 1-8 6 76 76 0 0 1-12 4l-14 4a99 99 0 0 0-13 6 43 43 0 0 0-12 8 41 41 0 0 0-8 14 52 52 0 0 0-4 19 47 47 0 0 0 4 19 47 47 0 0 0 11 15 54 54 0 0 0 18 12 66 66 0 0 0 24 4 90 90 0 0 0 15-2 78 78 0 0 0 14-3 76 76 0 0 0 12-6 56 56 0 0 0 10-7l-9-18a14 14 0 0 0-4-4 8 8 0 0 0-5-1 12 12 0 0 0-6 1l-6 4a56 56 0 0 1-9 4 35 35 0 0 1-11 1 24 24 0 0 1-16-4 16 16 0 0 1-6-13 12 12 0 0 1 4-8 27 27 0 0 1 8-6 88 88 0 0 1 12-4l13-5a124 124 0 0 0 14-6 46 46 0 0 0 12-8 40 40 0 0 0 8-13 44 44 0 0 0 4-17 58 58 0 0 0-4-22 50 50 0 0 0-12-17 54 54 0 0 0-19-12 70 70 0 0 0-25-4 80 80 0 0 0-16 1z m-234-259l-132 194h-23v-327h24v284l129-189h2l130 189v-284h24v327h-24z m-443 304l170 268v289h-170v-557z m958 164l-168 281-110-180 59-101h219z m-46-65a80 80 0 0 0 18-27 93 93 0 0 0 0-67 79 79 0 0 0-45-45 99 99 0 0 0-71 0 79 79 0 0 0-44 45 94 94 0 0 0 0 67 80 80 0 0 0 17 27 81 81 0 0 0 27 18 93 93 0 0 0 36 7 92 92 0 0 0 35-7 81 81 0 0 0 27-18z m-16-60a72 72 0 0 1-3 22 47 47 0 0 1-9 16 40 40 0 0 1-15 11 51 51 0 0 1-19 4 51 51 0 0 1-20-4 40 40 0 0 1-15-11 47 47 0 0 1-9-16 79 79 0 0 1 0-45 47 47 0 0 1 9-16 39 39 0 0 1 15-11 52 52 0 0 1 20-3 51 51 0 0 1 19 3 39 39 0 0 1 15 11 47 47 0 0 1 9 16 73 73 0 0 1 3 23z m800 83h-39v-167h39v166z m-320 0h-39v-167h39v166z m567-77c0 2 0 5 0 7s0 6 0 9l78-99a16 16 0 0 1 6-5 18 18 0 0 1 8-1h20v165h-34v-87q0-4 0-9t0-9l-79 99-3 3a11 11 0 0 1-2 2 11 11 0 0 1-3 1l-5 0h-20v-166h34v89z m-367-61a38 38 0 0 0-14 2 63 63 0 0 0-10 5l-7 5a14 14 0 0 1-7 2 10 10 0 0 1-5-1 9 9 0 0 1-4-4l-11-18a61 61 0 0 1 11-9 94 94 0 0 1 30-11 80 80 0 0 1 16-2 70 70 0 0 1 25 5 54 54 0 0 1 19 12 50 50 0 0 1 11 17 58 58 0 0 1 4 22 44 44 0 0 1-3 17 40 40 0 0 1-8 13 46 46 0 0 1-12 8 124 124 0 0 1-14 6l-13 5a88 88 0 0 0-12 4 27 27 0 0 0-9 6 12 12 0 0 0-3 8 16 16 0 0 0 5 12 24 24 0 0 0 17 5 35 35 0 0 0 11-2 55 55 0 0 0 9-3l6-4a12 12 0 0 1 6-2 8 8 0 0 1 5 2 14 14 0 0 1 4 4l9 18a56 56 0 0 1-10 7 76 76 0 0 1-12 6 78 78 0 0 1-14 3 90 90 0 0 1-14 1 66 66 0 0 1-25-4 54 54 0 0 1-18-11 47 47 0 0 1-11-16 47 47 0 0 1-3-18 52 52 0 0 1 3-20 41 41 0 0 1 8-13 43 43 0 0 1 12-9 98 98 0 0 1 14-5l13-4a76 76 0 0 0 12-4 24 24 0 0 0 8-6 14 14 0 0 0 4-10 18 18 0 0 0-6-15 26 26 0 0 0-17-4z m-423 82l44-85a15 15 0 0 1 5-7 15 15 0 0 1 8-2h5a15 15 0 0 1 9 2 15 15 0 0 1 5 7l44 85c0-5 0-10 0-15v-95h34v165h-34a9 9 0 0 1-4 0 8 8 0 0 1-2-1 14 14 0 0 1-3-4l-42-84q-3-4-5-9c-1-3-3-6-4-10q-2 5-4 10c-1 3-3 6-4 9l-43 84a14 14 0 0 1-2 4 8 8 0 0 1-3 2 9 9 0 0 1-3 0h-34v-167h34v96c0 2 0 4 0 7s-1 5-1 8z m985-461l-226 285h-23v-327h23v291l231-291h18v327h-24v-285z m-642 365a50 50 0 0 1 11 17 58 58 0 0 1 4 22 44 44 0 0 1-3 18 40 40 0 0 1-9 12 46 46 0 0 1-11 8 124 124 0 0 1-14 6l-13 5a89 89 0 0 0-12 4 27 27 0 0 0-9 6 12 12 0 0 0-3 8 16 16 0 0 0 5 13 24 24 0 0 0 16 4 35 35 0 0 0 12-1 55 55 0 0 0 8-4l7-4a12 12 0 0 1 6-1 8 8 0 0 1 5 1 14 14 0 0 1 3 4l10 18a56 56 0 0 1-10 7 76 76 0 0 1-13 6 78 78 0 0 1-13 3 90 90 0 0 1-15 2 66 66 0 0 1-24-5 54 54 0 0 1-18-11 47 47 0 0 1-11-16 47 47 0 0 1-4-18 52 52 0 0 1 3-19 41 41 0 0 1 9-14 43 43 0 0 1 11-8 99 99 0 0 1 14-6l14-4a75 75 0 0 0 11-4 25 25 0 0 0 9-6 14 14 0 0 0 3-10 18 18 0 0 0-6-14 26 26 0 0 0-16-5 38 38 0 0 0-14 2 62 62 0 0 0-10 5l-8 5a14 14 0 0 1-6 2 10 10 0 0 1-5-1 9 9 0 0 1-4-4l-11-18a60 60 0 0 1 11-9 93 93 0 0 1 30-11 79 79 0 0 1 16-2 70 70 0 0 1 25 5 54 54 0 0 1 19 12z m310-243v-1c0-89-66-169-165-169s-164 79-164 168v1c0 90 66 170 165 170s164-79 164-169z m-25-1c0 82-59 148-140 148s-139-66-139-147v-1c0-81 59-147 140-147s139 65 139 146v1z m-477 12c-78 16-95 37-95 72v1c0 34 32 62 80 62a141 141 0 0 0 97-37l16 19a163 163 0 0 1-113 40c-60 0-105-37-105-86v-1c0-50 32-76 111-92 74-15 92-35 92-70v-1c0-37-33-65-82-65a159 159 0 0 0-118 49l-16-19a186 186 0 0 1 132-52c63 0 108 36 108 89v1c0 48-31 75-107 91z m-237-176h25v328h-25v-327z m824 476a89 89 0 0 0-6-33 79 79 0 0 0-45-45 99 99 0 0 0-70 0 81 81 0 0 0-27 18 80 80 0 0 0-18 27 94 94 0 0 0 0 67 80 80 0 0 0 18 27 81 81 0 0 0 27 18 93 93 0 0 0 35 7 92 92 0 0 0 35-7 81 81 0 0 0 27-18 80 80 0 0 0 18-27 89 89 0 0 0 6-33z m-39 0a72 72 0 0 1-4 23 47 47 0 0 1-9 16 40 40 0 0 1-14 11 51 51 0 0 1-20 3 51 51 0 0 1-20-3 40 40 0 0 1-15-11 47 47 0 0 1-9-16 79 79 0 0 1 0-45 47 47 0 0 1 9-17 39 39 0 0 1 15-10 52 52 0 0 1 20-4 51 51 0 0 1 20 4 39 39 0 0 1 14 10 47 47 0 0 1 9 17 72 72 0 0 1 4 23z m-1010-146l153-329h-28l-41 91h-193l-42-91h-25l153 329h23z m74-217l-86 191-87-190h173z m1267 351a40 40 0 0 1-8 12 46 46 0 0 1-12 9 123 123 0 0 1-13 5l-14 5a89 89 0 0 0-12 4 27 27 0 0 0-8 6 12 12 0 0 0-3 8 16 16 0 0 0 5 13 24 24 0 0 0 16 4 35 35 0 0 0 11-1 56 56 0 0 0 9-4l7-4a12 12 0 0 1 5-1 8 8 0 0 1 5 1 15 15 0 0 1 4 4l9 18a56 56 0 0 1-10 7 75 75 0 0 1-12 6 78 78 0 0 1-14 3 90 90 0 0 1-14 2 66 66 0 0 1-25-5 54 54 0 0 1-18-11 47 47 0 0 1-11-15 46 46 0 0 1-3-19 52 52 0 0 1 3-19 41 41 0 0 1 8-14 43 43 0 0 1 12-8 100 100 0 0 1 14-6l13-4a76 76 0 0 0 12-4 25 25 0 0 0 8-6 14 14 0 0 0 3-10 18 18 0 0 0-5-14 26 26 0 0 0-17-5 38 38 0 0 0-13 2 63 63 0 0 0-10 5l-8 5a14 14 0 0 1-7 2 10 10 0 0 1-5-1 9 9 0 0 1-4-4l-11-18a60 60 0 0 1 12-8 91 91 0 0 1 13-7 92 92 0 0 1 16-5 80 80 0 0 1 16-1 70 70 0 0 1 25 4 54 54 0 0 1 19 12 51 51 0 0 1 11 17 58 58 0 0 1 4 22 44 44 0 0 1-3 18z m-1127-4a51 51 0 0 0-2-15 32 32 0 0 0-6-12 28 28 0 0 0-11-7 39 39 0 0 0-27 0 27 27 0 0 0-10 7 33 33 0 0 0-7 12 51 51 0 0 0-2 16v98h-39v-98a78 78 0 0 1 5-28 62 62 0 0 1 13-22 64 64 0 0 1 23-14 89 89 0 0 1 60 0 64 64 0 0 1 23 14 63 63 0 0 1 13 22 77 77 0 0 1 5 28v98h-38v-98z" horiz-adv-x="2290" />

<glyph glyph-name="sm-top" unicode="&#xe802;" d="M637 738l-418-679-219 1 419 682z m39 4l-301-495h218l301 491z" horiz-adv-x="2290" />

<glyph glyph-name="logo" unicode="&#xe803;" d="M253 447c34 44 72 82 121 108-2 1-4 2-5 3-6 4-8 7-7 13 0 5 0 8 0 13 0 4 0 8 4 9 4 4 8 7 11 9 7 4 13 7 20 11 1 2 2 6 3 10 5 18 15 34 27 48 17 19 37 32 60 41 23 11 47 17 72 22 13 2 27 3 42 6 1 0 3 1 5 1 0 1-1 2-1 2-19 37 2 80 42 92 29 8 59-2 76-25 15-20 17-42 7-64-1-2-1-3-2-4 2-2 4-1 6-2 32-4 63-10 94-20 24-9 46-20 65-37 17-14 31-30 39-51 2-5 4-11 6-17 14-2 25-8 36-17 3-3 6-6 8-10 3-3 5-8 4-12 0-1 0-2 0-2 2-6-2-11-6-14-4-3-7-4-11-7-2-1-3-2-4-3 2-2 16-12 22-16 1 2 2 4 3 6 21 26 43 50 69 69 14 11 28 19 44 26 37 15 73 12 108-5 22-12 40-29 54-49 18-25 30-54 35-85 3-17 5-36 3-54-3-38-12-76-29-110-23-49-59-84-106-110-9-5-19-10-30-14-2-1-4-3-5-6-7-29-19-55-36-79-3-3-5-5-10-5-143 0-284-1-427-1-100 0-201-1-300-1-40 0-80 0-118-1-5 0-7 1-9 6-20 32-33 68-40 106-2 8-2 18-3 27 0 3-1 6-3 9-39 80-78 161-117 241-1 2-2 5-5 6-1 1-1 1-2 2-3 3-3 6 0 9 2 3 5 5 8 5 8 4 15 5 22 6 13 1 26 1 38-2 5-1 8-3 13-4 2-1 5-3 6-5 2-3 5-5 8-7 30-21 60-42 91-63 1-1 2-2 4-4z m801 29c0-1 0-1 1-1 1-1 1-2 3-3 16-17 31-36 43-55 10-16 19-33 23-50 7-25 13-50 14-76 0-3 1-4 1-8 3 2 4 3 6 4 16 12 31 26 44 43 33 43 49 91 41 147-2 9-3 18-6 26-4 12-11 23-18 32-4 6-10 13-16 17-14 11-31 15-49 11-13-2-25-8-35-15-23-18-40-40-51-67 0-2-1-4-1-5z m-295-570c-14 0-28 0-41 0 0 4 39 173 40 179 19 0 38 0 58 0 0-2 0-4 0-7 0-26 0-52 1-79 0-2 0-4 1-6 4 10 7 20 10 30 4 10 6 20 10 31 3 10 6 20 9 31 6 0 54 0 60 0-6-59-11-120-16-179-5-1-36-1-43 0 0 2 0 4 0 6 3 18 5 37 7 55 3 21 6 43 8 65 0 1 0 1 0 3-1-2-1-3-2-5-12-35-23-71-35-106-1-6-3-11-5-17-5-1-29-1-33 0-1 43-1 86-3 129 0 0-1 0-1 0-8-44-16-87-25-130z m-759 67c0 23 4 45 13 67 6 14 14 26 25 36 11 9 23 14 37 15 7 1 13 0 20-1 14-3 25-11 33-22 6-9 10-20 10-30 4-31-1-60-14-88-3-8-8-16-15-23-16-20-38-26-63-21-15 2-27 11-34 23-8 12-10 24-11 36-1 3-1 6-1 8z m87 49c0 4 0 9 0 13 0 2-1 3-1 5-2 7-7 9-15 7-2-1-5-4-7-6-1-3-3-6-4-9-7-22-11-45-10-68 0-4 1-7 2-10 2-4 4-6 9-6 5 0 10 2 12 7 3 4 5 10 6 15 6 17 8 34 8 52z m1037-3c1 14 4 28 6 42 1 13 4 27 6 40 4 1 38 2 45 0 0-1 0-3 0-5-4-20-6-41-10-62-4-26-9-53-12-79-3-15-6-31-7-46 0-1-1-2-1-3-5 0-40 0-44 0 0 4 1 7 1 12-3 0-4-2-6-4-5-5-10-9-18-10-19-5-31 3-37 18-2 5-3 9-4 13-2 19 0 38 6 55 3 10 7 20 14 28 6 8 13 14 23 16 15 4 25-1 33-11 1-1 2-2 3-4 1 0 1 0 2 0z m-8-39c0 3 0 8-1 11-3 6-9 8-14 4-2-2-4-4-5-7-6-12-8-25-6-39 1-4 3-7 6-8 5-1 8 0 10 3 2 3 3 6 5 10 4 8 5 17 5 26z m-522-78c13 0 25 0 37 0 0-1 1-1 1-2 0-4 3-8 7-9 5 0 9 0 13 4 1 2 3 5 3 8 2 8 3 16 4 25-1-1-3-3-4-4-6-6-13-10-22-11-11 0-22 3-27 14-4 6-5 13-6 20-1 20 1 40 9 58 4 9 9 16 16 22 9 8 19 11 30 9 6-1 12-4 16-9 2-1 3-3 5-5 1 3 1 6 2 9 0 2 2 3 4 3 12 0 25 0 38 0 1 0 1 0 1-1 0-1 0-4 0-6-5-30-10-61-15-91-1-11-3-23-6-34-2-6-3-12-6-19-4-8-11-15-20-17-6-2-13-4-20-4-11-1-23-1-33 2-4 1-8 3-12 4-5 3-8 8-11 13-4 6-5 13-4 21z m76 83c-1 3-1 8-2 11-1 7-7 8-12 4-2-2-3-5-5-7-5-11-6-21-5-33 0-1 0-2 0-3 2-7 8-8 14-4 2 3 4 5 5 9 3 6 4 14 5 23z m660 46c14 0 29 0 44 0-2-14-4-28-6-43-2-14-5-27-7-41-3-14-5-28-7-42-15 0-29 0-44 0 0 4 0 8 1 12-1-1-2-2-3-2-4-2-7-6-11-9-7-4-15-6-24-5-8 1-14 5-18 12-4 6-5 11-6 17-4 28 0 55 14 80 2 5 7 9 11 14 6 6 15 9 24 10 10 0 19-3 25-11 1-2 2-3 3-5 3 5 2 9 4 13z m-10-55c-1 4-1 9-2 13-1 7-8 9-13 4-2-2-4-5-5-8-5-11-6-23-5-35 0-2 0-4 1-6 2-3 7-5 10-2 2 1 4 2 5 4 2 3 4 6 5 10 2 7 3 14 4 20z m-747-69c-15 0-30 0-45 0 0 3 0 5 1 6 4 23 7 45 11 68 0 2 1 3 1 5 0 3-1 5-5 7-2 2-7 1-9-2-1-3-3-5-3-8-2-7-3-15-4-22-2-17-5-33-8-49 0-1 0-3 0-4-5-1-39-2-45 0 1 14 4 28 6 42 1 14 4 27 6 41 3 14 4 28 7 42 5 1 35 1 41 0 0-4-1-7-1-11 1 1 2 1 2 2 10 9 21 12 35 11 16-1 25-10 25-26 0-10-2-20-2-29-4-22-7-45-11-67-1 0-2-3-2-6z m-114 73c0-12-1-23-6-35-1-5-4-11-8-17-13-20-31-27-54-25-3 0-6 1-9 2-20 4-33 17-36 38-4 18-2 37 5 55 3 6 6 13 10 18 12 16 29 22 48 21 5 0 8-1 13-2 20-4 32-17 37-37 0-3 0-4 0-7 0-3 0-7 0-11z m-44 2c-1 4-1 8-2 12-2 7-9 8-13 2-3-2-4-6-6-9-4-11-5-22-5-33 0-2 0-4 1-5 1-4 2-6 6-7 4-1 6 1 8 3 2 3 3 5 4 8 4 10 6 20 7 29z m-154-2c0-13-3-25-7-37-3-7-6-13-10-18-10-13-23-20-40-21-7 0-13 0-21 2-20 4-32 16-36 37-3 19-1 39 6 58 3 5 6 10 9 15 13 17 29 23 50 21 3 0 8-1 11-2 20-4 34-17 37-38 0-5 1-11 1-17z m-46 4c0 2 0 4 0 6 0 1 0 2-1 4-1 7-8 8-13 2-2-2-3-5-5-8-5-10-6-22-5-34 0-2 0-4 0-5 1-3 2-6 6-6 3-1 6 0 8 3 1 3 3 5 4 9 5 8 6 18 6 29z m812-21c-22 0-44 0-66 0-1-8-2-14-1-22 1-4 4-6 7-6 7-2 17 0 19 9 0 1 1 2 1 3 4 1 31 2 37 0 0-1 0-2 0-3-3-23-20-39-42-42-10-1-20-1-29 1-16 3-28 14-32 31-3 9-4 17-4 26 1 11 2 21 5 31 4 11 9 20 17 27 10 10 21 15 35 16 8 1 17 0 25-1 18-6 30-20 31-38 1-10 0-19-2-29 0-1 0-1-1-3z m-36 21c2 5 2 10 0 14-1 4-2 6-6 7-5 1-10 1-13-2-5-6-7-12-8-19 10 0 18 0 27 0z m-676-77c-16 0-30 0-46 0 1 14 4 27 6 40 2 13 5 26 6 40 2 13 5 25 7 39 1 13 4 26 6 39 1 13 4 27 6 40 15 0 29 0 44 0 1-5-6-52-14-99-5-33-10-66-15-99z m877 124c15 0 30 0 44 0 1-5-17-121-20-126-14 0-29 0-44 0 7 43 14 84 20 126z m55 48c0-8-4-17-10-23-6-7-14-8-22-7-8 1-13 7-16 14-2 10-1 19 5 28 6 9 15 13 26 11 9-1 15-8 17-17 0-1 0-4 0-6z" horiz-adv-x="1374" />

<glyph glyph-name="logo-aura" unicode="&#xe804;" d="M443 363c29 38 62 70 105 92-2 1-4 2-5 3-5 3-7 6-6 12 0 3 0 6 0 10 0 4 1 7 4 9 3 3 7 5 10 7 5 3 10 6 16 9 1 3 2 6 3 9 4 16 12 29 23 41 14 16 32 28 52 36 19 9 41 15 62 18 11 3 23 3 36 6 1 0 3 0 4 0 0 1-1 3-1 3-16 31 2 68 37 79 24 7 51-2 65-22 13-17 15-36 6-55 0-2 0-2-1-4 1-1 3-1 4-1 28-3 55-9 82-18 20-7 39-17 56-31 14-12 26-27 33-44 2-5 3-10 5-14 12-3 22-8 31-16 3-2 5-5 7-8 3-3 4-7 3-11 0 0 0-1 0-1 2-5-1-9-5-12-3-3-6-4-9-6-1-1-3-2-4-3 3-2 14-10 19-13 1 1 2 3 3 4 18 23 37 44 59 60 13 9 25 16 38 22 32 13 63 11 93-4 19-10 35-25 47-42 15-22 25-46 30-73 3-15 4-31 3-47-3-33-11-65-25-95-20-42-51-72-91-94-9-5-17-8-26-12-2-1-4-2-5-6-6-25-16-47-31-67-2-3-4-5-8-5-123 0-245 0-368 0-86 0-173-1-259-1-34 0-68 0-101-1-4 0-6 1-8 5-17 28-28 58-34 91-2 7-2 16-3 23 0 3-1 6-2 8-34 69-67 139-101 208-1 1-2 4-4 4-1 1-2 2-3 3-2 2-2 5 0 7 3 3 5 4 8 5 6 3 12 4 18 4 12 1 23 1 34-1 3-1 7-2 10-4 3-1 5-2 6-4 1-2 4-4 6-6 26-18 52-36 79-54 0-1 2-2 3-3z m690 25c0-1 0-1 1-1 0-1 1-2 3-3 13-15 26-31 37-47 8-14 16-28 20-44 6-21 10-43 12-65 0-2 1-4 1-7 2 2 3 3 4 3 15 11 27 23 38 38 29 37 43 79 36 126-2 8-3 16-6 23-3 10-9 19-15 28-4 5-9 10-14 14-12 10-27 13-42 10-11-2-21-8-30-14-20-15-34-34-44-57 0-2-1-3-1-4z m303-374c0 6 0 11 0 17 0 6 0 12 0 18 0 2 1 4 2 5 33 44 53 91 63 145 6 27 6 55 3 83-4 45-18 87-39 127-31 58-74 108-126 149-42 32-88 59-137 80-50 22-102 38-156 50-25 6-52 11-79 15-16 2-33 4-49 6-24 3-49 4-74 5-27 1-55 2-82 0-16-1-32-1-47-3-20-2-41-4-61-7-34-6-67-13-100-22-67-18-131-43-192-76-41-23-79-50-114-82-33-30-61-64-83-104-18-32-29-67-36-102-5-26-7-53-6-79 2-48 14-94 37-136 12-21 25-41 41-59 2-1 3-3 3-4 0-12 0-24 0-37 0 0 0 0-1-1-2 0-3 2-5 3-15 14-29 28-42 44-31 37-56 78-74 124-11 27-17 56-20 85-6 49 0 97 15 144 20 59 51 110 92 156 41 44 87 79 138 110 54 32 113 57 173 76 43 13 87 24 131 32 25 4 50 8 75 10 20 3 41 4 61 6 36 2 72 2 108 1 19-1 38-1 56-4 18-1 37-3 56-6 28-4 57-9 86-15 51-11 101-27 150-46 58-23 114-52 165-88 44-31 83-67 116-110 31-39 55-82 70-130 8-28 13-55 14-83 2-49-7-97-26-143-18-44-43-83-73-118-10-11-19-22-30-31 0-2-2-3-3-5z m-1236-46c-2 1-3 2-5 3-24 18-47 39-68 61-30 31-56 64-78 101-21 35-37 72-46 111-8 31-10 62-8 94 3 38 13 74 27 109 23 55 55 104 94 148 44 49 96 89 152 122 55 33 112 58 172 78 42 13 84 24 126 32 23 4 45 7 67 11 18 2 35 4 53 6 16 1 32 3 49 4 17 1 33 1 50 2 12 0 24 1 36 1 14 0 29 0 44-1 17-1 33-1 49-3 20-2 39-3 59-5 26-3 51-7 76-12 53-10 105-22 155-40 62-21 121-48 176-82 47-29 90-61 128-101 36-37 66-78 88-124 18-36 29-73 36-112 4-28 5-56 2-84-5-54-23-104-50-151-25-43-56-81-92-115-15-15-32-29-49-41-1-2-3-2-5-4-1 4-1 5 2 8 11 8 22 18 32 28 44 42 78 90 101 146 13 31 22 62 25 94 4 28 4 56 1 83-7 69-33 129-73 185-28 38-60 71-98 100-48 39-102 71-158 96-61 29-123 50-189 66-30 7-60 13-92 18-17 3-35 4-52 7-19 2-38 4-57 4-31 1-60 1-90 0-14 0-29 0-44-1-18-2-35-3-53-5-27-2-54-6-81-10-84-15-165-38-243-73-58-25-111-57-160-97-45-36-84-78-116-127-26-39-45-82-57-127-6-30-9-59-8-89 2-46 13-91 32-133 18-39 42-76 71-108 20-24 42-45 66-64 4-3 4-6 3-9z m680-72c-12 0-24 0-36 0 0 4 34 150 35 155 16 0 33 0 50 0 0-2 0-4 0-6 0-23 0-45 0-68 0-2 0-3 1-6 4 9 6 18 9 26 3 9 6 18 9 27 3 9 5 17 8 27 5 0 46 0 51 0-5-51-9-103-14-154-4-1-31-1-36 0 0 2 0 3 0 5 2 16 4 31 6 47 2 19 4 37 7 56 0 1 0 1 0 3-2-2-2-3-3-5-9-30-19-60-29-91-2-5-3-10-5-14-4-1-25-1-29 0 0 37 0 73-2 111 0 0-1 0-1 0-7-38-14-75-21-113z m-654 59c0 19 3 38 11 57 5 12 11 23 21 31 9 8 20 12 32 13 6 1 11 0 18-1 12-2 21-9 28-19 5-8 8-17 9-26 3-26-2-51-12-75-3-8-8-14-13-21-15-16-34-22-55-18-13 3-23 10-30 21-6 10-8 20-9 31 0 2 0 4 0 7z m75 42c0 4 0 8 0 12 0 1-1 2-1 4-2 6-7 8-13 6-2-1-4-3-6-6-2-2-3-4-4-7-6-19-9-39-8-59 0-3 1-6 1-8 2-3 4-6 8-6 5 0 8 3 11 7 2 3 3 8 5 12 4 15 7 30 7 45z m892-3c1 12 4 24 5 36 2 11 4 24 6 35 3 1 32 1 38 0 0-2 0-3 0-5-3-17-5-35-8-53-4-23-8-45-11-68-2-13-4-27-6-40 0 0-1-1-1-2-4-1-34-1-38 0 0 3 1 6 1 10-2 0-3-2-4-3-5-5-9-8-16-9-16-4-27 3-32 16-2 3-2 7-3 11-2 16 0 32 4 47 3 9 7 17 13 24 5 7 11 12 19 14 14 3 22-1 29-10 1-1 2-1 2-3 1 0 1 0 2 0z m-6-34c-1 3-1 7-2 10-2 5-7 7-12 3-1-2-3-3-4-5-5-11-6-22-5-35 1-3 2-6 5-6 4-1 7 0 9 3 1 2 3 5 4 8 4 7 4 14 5 22z m-450-66c11 0 22 0 32 0 0-1 1-1 1-2 0-3 2-6 6-7 4-1 8 0 11 3 1 1 3 4 3 7 1 7 2 13 3 21-1-1-3-2-3-3-6-5-12-8-19-9-10-1-19 2-24 11-3 6-4 12-5 18-1 17 1 34 8 50 3 7 8 13 14 19 8 7 16 9 26 8 5-1 10-4 13-8 2-2 3-3 4-5 2 3 2 6 2 8 0 1 2 3 4 3 10 0 22 0 32 0 1 0 1 0 2-1 0-1 0-4-1-5-4-26-8-53-12-78-2-10-3-20-6-30-1-5-3-11-5-16-4-8-10-13-17-15-6-2-12-3-17-3-10-1-20-1-29 1-3 1-7 3-10 4-4 2-7 6-10 11-3 4-4 11-3 18z m66 71c-1 3-1 6-2 9-1 6-6 7-11 4-1-2-3-4-4-7-5-9-5-18-5-28 0 0 0-2 1-3 2-5 7-7 12-3 2 3 3 5 4 8 3 5 4 13 5 20z m568 40c12 0 25 0 38 0-1-12-3-24-5-37-2-12-4-23-6-35-2-12-4-25-6-37-13 0-25 0-38 0 1 4 1 7 1 11-1-1-2-2-3-2-3-2-6-5-9-7-6-4-13-6-20-5-7 1-12 5-16 11-3 4-5 9-6 14-3 25 0 47 13 69 2 4 6 8 10 12 5 5 12 8 20 9 8 0 16-3 21-10 1-2 3-2 3-5 2 4 1 9 3 12z m-9-47c-1 4-1 7-1 11-2 6-7 8-12 3-2-1-3-4-4-7-5-9-6-19-5-29 0-3 1-4 2-6 1-3 5-4 8-2 2 1 3 2 5 4 1 2 3 5 3 8 3 6 3 12 4 18z m-643-59c-13 0-26 0-39 0 0 2 0 3 1 5 3 20 6 39 9 58 0 2 1 3 1 4 0 3-1 5-4 6-2 2-6 1-7-1-2-3-3-5-3-7-2-6-3-13-3-19-3-15-5-28-7-43 0 0-1-2-1-3-4 0-33-1-39 0 2 12 4 25 6 36 1 12 3 24 5 36 2 12 4 24 6 35 4 2 30 2 35 0 0-3-1-5-1-9 2 1 2 1 2 2 9 7 19 11 30 10 14-1 22-9 22-23 0-8-2-17-2-25-3-19-6-38-9-57-1-2-2-3-2-5z m-99 62c0-11 0-21-4-31-2-4-4-9-7-14-11-17-27-24-47-22-2 0-5 1-8 2-17 3-28 15-31 32-3 16-1 33 5 48 2 5 5 11 8 15 11 14 25 19 42 19 4 0 7-1 11-2 17-4 28-15 31-32 0-2 1-4 1-6-1-2-1-6-1-9z m-38 1c0 3 0 7-1 10-2 6-8 7-11 2-3-2-4-5-5-8-4-9-5-18-5-28 0-1 0-3 1-5 1-3 2-5 5-6 4 0 6 1 7 3 2 3 3 5 4 7 3 9 5 17 5 25z m-132-1c0-12-2-22-6-33-2-5-5-10-8-15-9-11-21-17-35-18-6 0-11 0-18 1-17 4-28 15-31 32-3 17-1 34 6 50 2 5 4 9 7 13 11 15 25 20 43 19 3 0 7-1 10-2 17-4 29-15 32-33 0-4 0-9 0-14z m-38 3c0 1 0 3 0 5 0 1 0 2-1 3-2 6-8 7-12 2-1-2-3-4-4-6-4-9-5-19-5-30 0-1 0-3 1-5 1-2 2-5 5-5 3-1 5 1 6 3 2 2 4 5 4 8 4 7 5 16 6 25z m698-18c-19 0-38 0-57 0-1-6-2-12-1-19 1-3 3-4 7-5 6-1 14 0 15 8 0 1 1 2 1 3 4 0 27 1 32 0 0-1 0-2 0-3-2-19-17-34-36-36-9-1-17-1-25 1-14 3-24 12-28 26-2 8-3 16-3 23 1 9 2 18 5 27 3 9 7 16 14 23 9 9 18 13 30 14 7 1 15 0 22-2 15-4 26-16 26-32 1-9 0-16-1-25 0 0 0-1-1-3z m-31 18c2 4 2 8 0 12-1 3-2 5-5 6-5 1-9 1-12-2-4-5-6-10-7-16 9 0 16 0 24 0z m-582-66c-14 0-26 0-40 0 1 12 4 23 5 34 2 11 4 23 6 34 1 12 4 22 5 34 2 11 4 22 5 34 2 11 4 23 6 34 13 0 25 0 38 0 0-4-6-45-12-85-5-28-9-56-13-85z m755 107c13 0 26 0 38 0 1-4-15-104-17-109-13 0-25 0-38 0 6 37 12 72 17 109z m47 41c0-8-3-15-8-21-5-5-12-6-19-5-7 1-12 5-14 12-2 9-1 16 4 24 5 8 13 11 23 10 7-1 13-7 14-15 0-1 0-3 0-5z" horiz-adv-x="1640" />

<glyph glyph-name="emo-devil" unicode="&#xe805;" d="M111 850c-1 0-3 0-5 0-1 0-2 0-3-1l0 0c-1 0-2 0-3 0-1 0-1 0-1 0-8-2-17-7-24-12-2-1-3-2-5-4-1-1-2-2-4-3l0 0 0 0 0 0 0 0c-11-11-20-22-28-34-2-2-3-5-5-7-1-2-3-4-4-7l0 0 0 0 0 0c-7-12-12-24-17-37-1-3-1-6-2-8-1-2-1-5-2-8l0 0c-17-65-5-136 18-188 5-10 10-19 15-28 5-8 11-16 16-23l1 0 0 0 0 0 0 0c5-6 12-9 20-10 7-1 15 2 21 7l0 0c1 1 3 2 4 4l0 0c0 0 0 0 0 0 0 1 1 1 1 1 4 5 7 10 11 15l3 3 2 3 0 0c4 5 8 9 12 14l3 2 2 3 0 0 0 0 0 0 0 0c22 24 47 44 74 62 5 4 11 7 16 10 5 3 10 6 16 9 0 1 0 1 1 1 7 4 12 10 14 17 2 8 1 16-3 23l0 0c-2 5-6 8-11 11l0 0 0 0c0 0-1 1-1 1-1 0-1 0-1 0-1 1-2 1-3 2l0 0 0 0 0 0 0 0c-7 2-13 5-20 8-1 0-2 1-3 2l-3 1c0 0-1 1-1 1l0 0c-5 3-11 6-16 10 0 0-1 1-2 2l-2 2c-1 0-1 0-1 0l0 0 0 0 0 0c-23 19-36 42-40 67 0 4-1 9-1 14 0 5 0 10 1 14l0 0 0 1c2 10 2 18 0 25 0 2-1 3-1 5 0 1-1 3-1 4l-1 0 0 0 0 0c-3 8-8 14-14 19-1 1-3 1-4 2-1 1-3 2-4 2l0 0 0 0c-5 2-10 3-15 3z m777 0c-5 0-10-1-14-3l0 0 0 0c-2 0-3-1-4-2-2-1-3-1-4-2-6-5-11-11-15-19l0 0 0 0 0 0c0-1-1-3-1-4-1-2-1-3-1-5-2-7-2-15 0-25l0-1 0 0c0-4 1-9 1-14 0-5-1-10-1-14-4-25-18-48-40-67l0 0 0 0 0 0c-1 0-1 0-1 0l-2-2c-1-1-2-2-3-2-5-4-10-7-15-10l0 0c-1 0-1-1-1-1l-3-1c-1-1-3-2-4-2-6-3-12-6-19-8l0 0 0 0 0 0 0 0c-1-1-2-1-3-2 0 0-1 0-1 0-1 0-1-1-2-1l0 0 0 0c-4-3-8-6-10-11l-1 0c-3-7-4-15-2-23 2-7 7-13 14-17 1 0 1 0 1-1 6-3 11-6 16-9 5-3 10-6 16-10 27-18 51-38 74-62l0 0 0 0 0 0 0 0 2-3 3-2c4-5 8-9 12-14l0 0 2-3 2-3c4-5 8-10 12-15 0 0 0 0 1-1 0 0 0 0 0 0l0 0c1-2 2-3 4-4l0 0c6-5 14-8 21-7 7 1 15 4 20 10l0 0 0 0 0 0 0 0c6 7 11 15 17 23 5 9 10 18 14 28 23 52 36 123 19 188l0 0c-1 3-2 6-2 8-1 2-2 5-3 8-4 13-9 25-16 37l0 0 0 0 0 0c-2 3-3 5-4 7-2 2-3 5-5 7-8 12-17 23-28 34l0 0 0 0-1 0 0 0c-1 1-2 2-4 3-1 2-2 3-4 4-8 5-16 10-24 12 0 0-1 0-1 0-1 0-2 0-3 0l0 0c-1 1-2 1-4 1-1 0-3 0-5 0z m-666-388l-1-2 0 0c-46-63-46-164 0-227 22-30 53-49 87-49l0 0 1 0 0 0c82 0 122 94 122 162l0 0 0 1 0 0c0 6 0 11-1 16-2 1-4 2-7 4l-201 95z m556 0l-202-95c-2-2-4-3-6-4-1-5-1-10-1-16l0 0 0-1 0 0c0-68 40-162 122-162l0 0 0 0 0 0c35 0 65 19 87 49 46 63 47 164 0 227l1 0-1 2z m21-374c-13 0-27-5-37-15l0 0c-1-1-1-2-2-3-10-10-20-20-31-29-10-9-22-18-34-26-62-41-135-62-210-58l0 0 0-1c-47 2-93 14-135 33-7 4-14 7-20 10-33 19-64 43-91 72-20 22-53 23-75 3-22-20-23-53-3-75 34-37 74-69 119-93 9-5 17-9 26-13 54-25 113-40 174-42l0-1 0 0c98-4 193 23 273 76 16 10 31 22 45 34 14 12 28 25 40 39 20 21 20 54-1 74-10 11-24 16-38 15z" horiz-adv-x="1000" />

<glyph glyph-name="emo-surprised" unicode="&#xe806;" d="M110 849c-61 0-110-65-110-144 0-80 49-145 110-145s109 65 109 145c0 79-49 144-109 144z m476 0c-60 0-109-65-109-144 0-80 49-145 109-145 61 0 110 65 110 145 0 79-49 144-110 144z m-255-432l0 0c-56 0-107-23-143-59-37-37-60-88-60-144l0 0 0-162 0 0c0-56 23-106 59-143 37-37 88-60 144-60l0 0 34 0 0 0c56 0 107 23 143 60 37 36 60 87 60 143l0 0 0 162 0 0c0 56-23 107-59 143-37 37-88 60-144 60l0 0-34 0z m0-107l0 0 34 0 0 0c26 0 50-11 67-28 18-18 29-42 29-68l0 0 0-162 0 0c0-26-11-50-28-67-18-18-42-29-68-29l0 1-34 0 0-1c-26 0-50 11-68 29-17 17-28 41-28 67l0 0 0 162 0 0c0 26 11 50 28 67 18 18 42 29 68 29z" horiz-adv-x="696" />

<glyph glyph-name="emo-tongue" unicode="&#xe807;" d="M174 800c-61 0-110-65-110-144 0-80 49-145 110-145s110 65 110 145c0 79-49 144-110 144z m476 0c-60 0-109-65-109-144 0-80 49-145 109-145 61 0 110 65 110 145 0 79-49 144-110 144z m121-560l-718-1c-29 0-53-24-53-53 0-30 24-54 53-54l140 0 0-74c0-55 20-108 60-148 46-47 103-60 165-60 57 0 111 17 153 59 41 41 60 94 60 150l0 74 140 0c29 0 53 24 53 53 0 30-24 54-53 54z m-471-109l224 0 0-72c0-27-7-53-28-74-39-39-129-39-168 0-20 21-28 45-28 73l0 73z" horiz-adv-x="824" />

<glyph glyph-name="emo-coffee" unicode="&#xe808;" d="M1234 850c-17 0-34-8-44-23-54-80-24-144 4-204 13-29 26-56 5-72-23-17-28-51-10-74 17-23 51-28 74-10 89 67 60 131 27 201-15 33-32 70-12 99 16 25 10 57-14 74-9 6-20 9-30 9z m-1021-121c-81 0-157-39-203-105-18-25-12-59 14-77 24-17 59-11 76 14 45 63 132 76 193 32l0 0c3-2 7-5 11-9l1 0 1-2c3-3 7-7 10-10l1-1 0-1 0 0 1-1 1 0c20-23 55-25 78-4 22 20 24 55 4 77-46 55-116 87-188 87z m499 0c-80 0-156-39-202-105-18-25-12-59 13-77 25-17 59-11 77 14 44 63 131 76 192 32l0 0c4-2 8-5 12-9l0 0 1-2c4-3 7-7 11-10l1-1 0-1 0 0 1-1 0 0c20-23 55-25 78-4 23 20 25 55 4 77-46 55-116 87-188 87z m206-346c-24 0-44-19-44-43l1-4-1-275 0 0 0 0 0 0c0-58 24-111 62-149l0 0 0 0 0 0c38-38 91-62 148-62l0 0 226 0c1 0 3 0 5 0 13 1 27 2 39 5 15 4 29 8 42 14 55 26 97 74 114 133l31 0 0 0c37 0 70 15 94 39 23 23 38 56 38 92l0 0 0 0 0 119 0 0c0 36-15 69-39 93l0 0c-23 23-56 38-92 38l0 0 0 0-624 0z m604-100c11 0 21-5 28-12l1 0 0 0c7-8 12-18 12-29l0 0 0-110 0 0c0-11-5-21-12-29-8-7-18-12-29-12l0 0-62 0 0 0c-21 0-39-16-40-36-4-42-31-77-67-94-7-3-15-6-22-8-7-1-14-2-21-2l-3 0-209 0 0-1c-30 1-59 13-79 34l-1 0c-21 21-34 50-34 81l0 0 0 0 0 0 1 218 537 0 0 0z m-82-55l0-96 32 0c22 0 39 17 39 38l0 20c0 21-17 38-39 38l-32 0z m-1131-12c-30 0-55-25-55-55s25-55 55-55l297 0c30 0 54 25 54 55s-24 55-54 55l-297 0z" horiz-adv-x="1673" />

<glyph glyph-name="emo-sunglasses" unicode="&#xe809;" d="M495 745c-154 0-309 0-463 0-18 0-32-15-32-33 3-152 129-306 278-309 84-1 164 36 218 95 55-59 135-96 219-95 149 3 272 157 275 309 0 18-14 33-32 33-155 0-309 0-463 0z m319-510c-18 0-35-9-45-25l0 0c0-1-1-2-1-3-7-12-15-23-24-34-10-12-19-23-29-32-54-51-126-80-203-80l0 0 0 0c-21 0-43 2-64 7-3 1-6 1-10 2-17 5-34 11-51 19-26 12-58 1-70-26-13-27-1-58 25-71 22-10 45-18 69-24 5-1 9-2 14-4 29-6 58-9 87-9l0 0 0 0c104 0 201 39 275 108 15 14 28 29 40 44 11 14 22 30 32 47 0 0 1 1 1 1 15 25 7 58-18 73-9 5-18 8-28 7z" horiz-adv-x="990" />

<glyph glyph-name="emo-displeased" unicode="&#xe80a;" d="M171 800c-61 0-110-65-110-144 0-80 49-145 110-145s109 65 109 145c0 79-49 144-109 144z m476 0c-61 0-110-65-110-144 0-80 49-145 110-145 61 0 110 65 110 145 0 79-49 144-110 144z m-594-447c-18 0-36-10-46-27-15-26-6-59 20-74l709-379c26-15 59-6 74 20 15 26 6 59-20 74l-709 379c-9 5-18 7-28 7z" horiz-adv-x="817" />

<glyph glyph-name="emo-beer" unicode="&#xe80b;" d="M1364 850c-29 0-59-7-86-20-4-2-8-4-12-7-38-22-37-12-80-14-32-1-62-12-89-29-26-16-49-39-65-64-16-27-26-58-25-89 1-26 23-46 49-46l0-1 619 0c26 0 48 22 48 48 3 32-7 64-24 91-15 24-36 45-60 61-25 15-53 26-82 29-21 2-42 0-62-6-3 3-7 5-10 8-36 26-79 39-121 39z m-695-47c-61 0-111-65-111-145 0-80 50-145 111-145 60 0 110 65 110 145 0 80-50 145-110 145z m695-50c29 1 60-12 83-37 15-19 42-24 63-11 11 7 24 9 37 8 14-2 28-7 40-15 9-5 17-13 24-21l-487 0c7 8 15 16 24 22 13 8 28 13 42 14 10 0 21-2 31-8 19-13 46-9 62 9 21 25 51 39 81 39z m-1041-49l-269 0c-30 0-54-24-54-54 0-30 24-54 54-54l269 0c30 0 54 24 54 54 0 30-24 54-54 54z m727-190c-23 0-42-19-42-42l0-4-1-412 0 0 0 0 0 0c0-57 24-108 61-145l0 0 0-1 0 0c37-37 89-60 145-60l0 0 220 0c2 0 4 0 5 0 14 1 27 2 39 5 14 3 28 8 41 14 53 25 95 72 112 129l30 0 0 1c35 0 68 14 91 38 23 23 38 55 38 90l0 0 0 0 0 1 0 257 0 0 0 0c0 36-15 68-38 91l0 1c-23 23-55 37-91 37l0 0 0 0-610 0z m591-98c11 0 21-5 28-12l0 0 0 0c7-7 12-17 12-28l0 0 0 0 0-250 0 0 0 0c0-11-5-21-12-28-7-8-17-12-28-12l0 0-61 0 0 0c-20 0-37-16-39-36-4-41-30-75-65-92-7-3-15-5-22-7-7-2-14-2-21-3l-2 0-204 0 0 0c-30 0-58 13-78 33l-1 0c-20 21-33 49-33 79l0 0 0 0 0 0 1 356 102 0 0-349c0-35 69-33 69 0l0 349 102 0 0-353c0-36 69-34 69 0l0 353 183 0 0 0z m-80-60l0-208 32 0c20 0 37 17 37 37l0 133c0 21-17 38-37 38l-32 0z m-1502-15c-6 0-12-1-18-4-28-10-43-40-32-68 46-127 137-229 251-291 22-12 45-22 69-31 58-21 121-33 186-33l0 0 0 0 0 0c57 0 113 9 167 27 10 3 20 7 30 11 11 4 22 8 31 13l0 0 0 0 0 0c27 13 38 45 25 71-12 27-44 38-70 26l0 0c-9-4-17-8-25-11-8-3-16-6-25-9-43-14-88-21-133-21l0 0 0 0 0 0c-52 0-102 9-149 27-19 7-38 15-55 25-92 49-165 131-202 232-8 22-28 36-50 36z" horiz-adv-x="1789" />

<glyph glyph-name="emo-grin" unicode="&#xe80c;" d="M197 801c-61 0-110-64-110-144 0-80 49-144 110-144s109 64 109 144c0 80-49 144-109 144z m476 0c-60 0-109-64-109-144 0-80 49-144 109-144 61 0 110 64 110 144 0 80-49 144-110 144z m144-480l-765 0c-29 0-52-24-52-54 3-200 238-351 422-354 186-3 442 156 448 355 0 29-24 53-53 53z m-700-106l634 0c-62-121-190-201-331-197-130 4-246 83-303 197z" horiz-adv-x="870" />

<glyph glyph-name="emo-angry" unicode="&#xe80d;" d="M53 738c-20 0-39-11-48-30-13-26-1-58 25-71l152-80c-3-46 8-93 34-128 21-29 52-49 88-49 90 0 126 107 121 179-120 53-232 115-349 174-7 4-15 5-23 5z m894 0c-8 0-16-1-23-5-117-59-229-121-349-174-5-72 31-179 121-179 36 0 67 20 88 49 25 35 37 82 34 128l152 80c26 13 37 45 25 71-10 19-29 30-48 30z m-453-537c-165 0-330-62-461-184l-2-3c-6-5-11-10-15-14-21-21-21-55-1-76 21-21 54-21 75-1l12 12 3 3c112 105 254 157 396 155 143-1 286-56 396-165 4-4 8-8 12-12 21-21 54-21 75-1 21 21 21 55 0 77-4 5-9 10-14 14-130 129-299 194-468 195-3 0-5 0-8 0z" horiz-adv-x="1000" />

<glyph glyph-name="emo-saint" unicode="&#xe80e;" d="M489 841c-115 0-229-10-322-30-103-21-166-57-167-102l0 0 0 0 0 0c1-45 64-81 167-102l0 0c190-40 475-40 665 0 103 21 167 57 167 102l1 0 0 0-1 0c0 45-64 81-167 102l0 0c-98 21-221 31-343 30z m11-89c193 0 350-19 350-43 0-24-157-43-350-43-194 0-351 19-351 43 0 24 157 43 351 43z m-334-359c-30 0-54-24-54-54s24-54 54-54l186 0c30 0 54 24 54 54 0 30-24 54-54 54l-186 0z m482 0c-30 0-54-24-54-54s24-54 54-54l186 0c30 0 54 24 54 54 0 30-24 54-54 54l-186 0z m151-301c-13-1-27-6-37-16-1-1-1-2-2-2-10-11-20-21-31-30-10-9-22-18-34-26-62-41-135-62-211-58l0-1c-46 2-92 14-134 33-7 4-14 7-20 10-33 19-64 43-91 72-20 22-54 23-75 3-22-20-23-53-3-75 34-37 74-68 119-93 8-5 17-9 26-13 54-25 113-40 174-42l0-1c98-4 193 23 273 76 16 11 31 22 45 34 14 12 28 25 40 39 20 21 20 54-1 74-10 11-24 16-38 16z" horiz-adv-x="999" />

<glyph glyph-name="emo-cry" unicode="&#xe80f;" d="M278 787c-7 0-15-2-23-5l-128-62-80-38c-2-1-4-2-6-3-1-5-1-11-1-16l0 0 0-1 0 0c0-69 40-162 122-162l0 0 0 0 0 0c34 0 65 18 87 49 26 35 37 82 34 128l18 9c27 12 38 44 25 71-9 19-28 30-48 30z m212 0c-20 0-39-11-48-30-13-27-1-59 25-71l18-9c-3-46 9-93 34-128 22-31 53-49 87-49l0 0 1 0 0 0c82 0 121 93 122 162l0 0 0 1 0 0c0 5-1 11-1 16-2 1-5 2-7 3l-80 38-128 62c-7 3-15 5-23 5z m279-302c-7 0-15-5-21-16-42-72-96-259 27-259 123 1 73 182 16 261-6 8-14 13-22 14z m-512-138c-57 0-112-9-166-26-10-4-20-7-30-11-11-5-21-9-30-13l0 0-1-1 0 0c-26-12-37-44-25-70 13-26 44-38 70-25l0-1c9 5 17 8 24 11 9 3 17 6 25 9 43 14 88 21 133 21 51 0 101-9 148-27 19-7 37-15 55-24 91-49 163-130 200-232 10-27 40-41 68-31 27 10 42 40 32 67-46 127-137 228-250 289-22 12-45 22-69 31-57 21-120 33-184 33z" horiz-adv-x="851" />

<glyph glyph-name="emo-shoot" unicode="&#xe810;" d="M53 850c-20 0-39-11-48-30-13-27-1-59 25-71l152-80c-3-46 8-93 34-129 21-28 52-49 88-49 90 0 126 108 121 180-120 53-232 114-349 174-7 3-15 5-23 5z m519-169c-30 0-54-24-54-54s24-54 54-54l186 0c30 0 54 24 54 54 0 30-24 54-54 54l-186 0z m619-87c-40 0-77-17-105-43l-2-2c-5-5-10-11-14-17-11-15-20-32-24-51-18-7-36-14-53-23-27-13-55-29-82-48l0 0c-73-50-163-159-201-265-8-22-14-44-17-66-3-21-4-42-2-63l1-4 0-1c9-68 37-114 78-140 9-5 18-9 28-13 8-2 17-4 26-5 2-1 3-1 6-1l3 0 0 0 1 0c54-3 100-2 145-1 21 1 41 1 60 1 118 1 143 92 167 184 7 26 14 52 23 72l219 0c84 0 127 45 148 100 3 11 6 21 8 32l290-1 1 0c29 0 52 23 52 52l0 154 1 0 0 67-1 0 0 0c0 21-8 40-22 53-12 12-27 20-44 22-3 1-7 1-10 1l-49 0 0 0-1 0c-19-1-36-8-49-19l0-1-1 0-2-2-1-1c-9-8-15-20-19-32l-162 0c-14 18-31 33-51 43l0 0c-5 3-10 5-15 7l-4 1c-14 6-29 9-45 9-2 1-4 1-6 1l-275 0z m278-105c4-1 8-2 12-3l1-1 1 0 0 0c2 0 3-1 4-1l0-1 0 0c9-5 17-13 21-23 9-21 31-34 53-32l237 0c19 0 35 10 45 24l0-7 0 0 0-101-286 1c-29 0-52-23-52-52l0 0c0-3-1-8-1-13l0 0 0-1 0 0c-1-6-1-12-3-18-1-6-2-11-4-16-6-18-20-32-49-32l-249 0c-19 0-36-10-45-26-4-6-9-13-12-19l0-1c-6 4-35-97-37-104-14-53-28-106-67-106-22 0-42-1-62-1l0 0c-42-1-85-3-135 0l0 0-3 1-2 0c-2 0-4 1-5 1-3 1-5 2-7 3-13 8-24 30-28 64l0 1-1 1c-1 11 0 23 2 37 2 15 6 30 12 45 31 87 103 175 161 215l0 0 0 0c23 15 46 29 70 40 23 12 46 21 69 29 22 7 36 28 36 50l0 0 0 0 0 0 0 2c1 9 4 18 9 25 2 2 3 4 5 5 8 8 20 14 32 14l275 0 3 0z m-1027-176c-123 0-241-44-334-120-17-15-35-31-51-49-16-17-31-36-45-55-16-24-10-57 14-74 24-17 57-11 73 13 11 16 23 31 36 44 12 14 26 27 41 39 74 61 168 95 266 95l0 0 0 1c18 0 36-2 55-4 1 0 1 0 8-2 16-2 31-5 45-9 28-7 58 9 65 38 8 28-9 57-37 65-19 5-38 9-57 12-1 0-2 0-11 1-22 3-45 4-68 4l0 1 0 0z" horiz-adv-x="1948" />

<glyph glyph-name="emo-squint" unicode="&#xe811;" d="M128 607c-30 0-54-24-54-54 0-30 24-54 54-54l267 0c30 0 54 24 54 54 0 30-24 54-54 54l-267 0z m476 0c-29 0-54-24-54-54 0-30 25-54 54-54l267 0c30 0 54 24 54 54 0 30-24 54-54 54l-267 0z m342-406c-13 0-27-5-37-16-4-4-8-8-12-12-111-109-253-164-396-165-142-2-285 50-396 155l-3 3-12 12c-21 21-54 20-75-1-20-21-20-55 1-76 3-4 8-8 14-14l3-3c132-124 301-186 469-184 169 1 337 67 468 195 5 5 9 10 14 14 20 22 20 56-1 77-10 10-23 15-37 15z" horiz-adv-x="999" />

<glyph glyph-name="emo-laugh" unicode="&#xe812;" d="M206 742c-77 0-151-39-196-103-17-24-11-57 13-74 24-17 58-12 75 13 43 61 127 74 186 31l0 0c4-2 8-5 11-9l1 0 1-1c3-3 7-7 10-11l1-1 0 0 0 0 1-1 0 0c20-22 54-24 76-4 22 19 24 53 4 75-45 53-112 85-183 85z m486 0c-78 0-152-39-197-103-17-24-11-57 13-74 24-17 58-12 75 13 43 61 127 74 186 31l0 0c4-2 8-5 12-9l0 0 1-1c4-3 7-7 10-11l1-1 0 0 0 0 1-1 1 0c19-22 53-24 75-4 22 19 24 53 5 75-46 53-113 85-183 85z m148-421l-765 0c-29 0-52-24-52-54 4-200 238-351 422-354 187-3 443 156 448 355 0 29-24 53-53 53z m-700-106l634 0c-61-121-190-201-330-197-130 4-247 83-304 197z" horiz-adv-x="893" />

<glyph glyph-name="sm" unicode="&#xe813;" d="M706 725l-463-753-243 1 465 757z m371-623a135 135 0 0 1-35 24 364 364 0 0 1-40 18q-21 7-40 13a261 261 0 0 0-35 13 81 81 0 0 0-26 16 34 34 0 0 0-9 25 46 46 0 0 0 15 37 71 71 0 0 0 48 13 102 102 0 0 0 33-4 164 164 0 0 0 25-11l22-12a35 35 0 0 1 16-5 24 24 0 0 1 15 4 42 42 0 0 1 11 12l28 53a165 165 0 0 1-30 22 223 223 0 0 1-35 16 229 229 0 0 1-41 11 266 266 0 0 1-44 3 195 195 0 0 1-72-12 160 160 0 0 1-52-33 139 139 0 0 1-33-46 137 137 0 0 1-11-54 155 155 0 0 1 9-57 118 118 0 0 1 25-40 126 126 0 0 1 34-24 292 292 0 0 1 40-16q21-7 40-12a224 224 0 0 0 35-13 72 72 0 0 0 25-17 41 41 0 0 0 9-29 52 52 0 0 0-17-43 75 75 0 0 0-48-13 111 111 0 0 0-40 6 185 185 0 0 0-30 14l-23 14a39 39 0 0 1-20 6 30 30 0 0 1-15-4 27 27 0 0 1-10-9l-34-53a178 178 0 0 1 34-27 275 275 0 0 1 88-33 235 235 0 0 1 47-5 206 206 0 0 1 75 13 158 158 0 0 1 55 34 148 148 0 0 1 33 52 170 170 0 0 1 13 63 131 131 0 0 1-10 53 117 117 0 0 1-25 37z m531 244l-198-291-198 291h-34v-492h35v428l196-284h2l196 284v-428h36v492h-35z m-1304 504h-188v-618l188 297v321z m631-436h243l-186 311-242 5-335-550h243l211 346z" horiz-adv-x="1642" />

<glyph glyph-name="asp" unicode="&#xe814;" d="M575 154c53 34 69 105 34 160s-105 68-160 34-68-106-34-160c10-14 20-25 34-34-82-27-138-105-138-192v-58h403v58c0 87-55 165-139 192z m18-164l-58-58h-2l60 183c11-6 20-12 29-19l-7-39-53-35 31-32z m-182 67l-7 39c9 7 18 14 29 19l60-183h-2l-58 58 31 31-53 36z m15 193c0 48 39 87 86 87s87-39 87-86-39-87-86-87h0c-48 0-87 38-87 86z m140-123l-53-163-53 163c34 10 72 10 106 0l0 0z m-226-165c0 40 14 79 39 109l6-32 34-22-27-27 57-58h-109l0 30z m346-30h-109l57 58-27 27 34 22 6 32c25-30 39-69 39-109l0-30z m-245 462h145v174h71l-144 213-142-213h70l0-174z m-16 202l88 133 88-133h-44v-173h-88v173h-44z m-334 5l49-249 48 50 123-127 106 106-126 121 48 48-248 51z m286-223l-65-64-123 128-31-32-31 153 153-31-31-30 128-124z m231 0l106-106 123 127 49-49 49 248-248-49 50-48-129-123z m291 185l-31-153-31 32-124-128-65 64 129 123-32 31 154 31z m-790 148c24 0 44 19 44 44s-19 43-44 43-43-20-43-43c0 0 0 0 0 0 0-24 19-44 43-44z m0 58c9 0 15-7 15-15 0-9-7-15-16-15-8 2-14 8-14 16 0 8 7 14 15 14 0 0 0 0 0 0z m115-150l20 20 20-18-20-20-20 18z m-82 83l20 20 20-20-20-20-20 20z m42-41l20 20 20-20-20-20-20 20z m-75-671c-23 0-43-20-42-44s20-43 44-42c23 0 42 20 42 44 0 23-19 42-44 42 0 0 0 0 0 0z m0-58c-8 0-14 7-14 14 0 9 7 15 14 15 9 0 15-8 15-15 0-7-6-14-15-14 0 0 0 0 0 0l0 0z m115 150l18 20 20-20-17-20-21 20z m-82-81l20 20 20-20-20-20-20 20z m42 41l20 20 20-20-20-20-20 20z m733-52c-24 0-44-19-44-44s19-43 44-43 43 19 43 43-19 44-43 44l0 0z m0-58c-9 0-15 7-15 14s7 15 15 15c8 0 14-8 14-15 1-7-6-14-14-14 0 0 0 0 0 0l0 0z m-75 69l20 20 20-20-20-20-20 20z m-80 80l20 20 20-19-21-20-19 19z m40-39l20 20 20-20-20-20-20 20z m115 669c23 0 43 19 43 44s-19 43-43 43-44-19-44-43l0 0c0-24 20-44 44-44z m0 58c8 0 14-7 14-14 0-8-7-14-14-14-9 0-15 7-15 14 0 0 0 0 0 0 0 8 6 14 15 14z m-115-108l20 20 20-20-20-20-20 20z m40 40l20 20 20-20-20-20-20 20z m-80-80l20 18 20-20-20-18-20 20z m155-357c-24 0-44-19-44-43 0-24 19-44 44-44s43 19 43 44-19 43-43 43l0 0z m0-57c-9 0-15 7-15 14s7 14 15 14c8 0 14-7 14-14 1-7-6-14-14-14 0 0 0 0 0 0l0 0z m-102 29h29v-29h-29v29z m-115 0h29v-29h-29v29z m58 0h28v-29h-28v29z m-649-58c24 0 44 19 44 44 0 23-19 43-44 43s-43-18-43-43 19-44 43-44l0 0z m0 58c9 0 15-7 15-15 0-9-7-14-16-14-8 0-14 7-14 14 0 8 6 15 15 15-1 0 0 0 0 0l0 0z m130 0h29v-29h-29v29z m-58 0h30v-29h-30v29z m116 0h29v-29h-29v29z" horiz-adv-x="1032" />

<glyph glyph-name="chq" unicode="&#xe815;" d="M705 726l-462-752-243 1 464 755z m229-311h242l-186 311-242 4-334-548h243l211 345z m-630 435h-188v-617l188 297v320z m1670-1000h-64a78 78 0 0 0-25 4 49 49 0 0 0-20 13l-61 68a222 222 0 0 0-30-6 247 247 0 0 0-32-2 225 225 0 0 0-86 16 195 195 0 0 0-67 45 199 199 0 0 0-43 68 243 243 0 0 0 0 169 200 200 0 0 0 43 68 195 195 0 0 0 67 45 225 225 0 0 0 86 16 233 233 0 0 0 60-8 208 208 0 0 0 51-20 189 189 0 0 0 42-33 196 196 0 0 0 31-43 210 210 0 0 0 20-51 252 252 0 0 0 1-111 219 219 0 0 0-17-48 199 199 0 0 0-26-42 189 189 0 0 0-36-33z m-100 289a191 191 0 0 1-10 62 132 132 0 0 1-26 46 112 112 0 0 1-41 29 154 154 0 0 1-110 0 113 113 0 0 1-41-29 130 130 0 0 1-27-46 209 209 0 0 1 0-123 129 129 0 0 1 26-46 114 114 0 0 1 42-29 154 154 0 0 1 109 0 113 113 0 0 1 42 29 130 130 0 0 1 26 46 191 191 0 0 1 9 61z m-478 34h-186v179h-88v-422h88v182h186v-182h87v422h-87v-179z m-361-133a14 14 0 0 1-7-1 26 26 0 0 1-6-4 124 124 0 0 0-18-14 101 101 0 0 0-20-9 117 117 0 0 0-23-6 208 208 0 0 0-27-1 120 120 0 0 0-48 9 111 111 0 0 0-39 28 133 133 0 0 0-26 45 176 176 0 0 0-9 60 186 186 0 0 0 8 60 128 128 0 0 0 25 45 107 107 0 0 0 39 27 124 124 0 0 0 49 10 146 146 0 0 0 28-2 132 132 0 0 0 22-6 102 102 0 0 0 16-8l12-8q5-3 9-6a18 18 0 0 1 9-2 16 16 0 0 1 9 3 23 23 0 0 1 6 5l25 35a186 186 0 0 1-58 38 198 198 0 0 1-78 15 208 208 0 0 1-80-15 185 185 0 0 1-63-43 191 191 0 0 1-40-66 230 230 0 0 1-15-83 245 245 0 0 1 13-82 187 187 0 0 1 39-65 177 177 0 0 1 61-43 202 202 0 0 1 81-15 207 207 0 0 1 85 16 162 162 0 0 1 60 47l-30 32a15 15 0 0 1-9 4z" horiz-adv-x="1974" />

<glyph glyph-name="spin1" unicode="&#xe830;" d="M496 850c-176 0-331-90-421-226-18-27-33-55-46-85-12-29-21-60-28-92 0 0 0-1 0-1l0 0 0 0c0-1 0-2 0-2 0-7 5-12 11-12l101 0c5 0 10 4 11 9 29 113 109 206 214 253 20 10 41 17 63 23 31 7 62 11 95 11l0 0 0 0 0 0c25 0 50-2 74-7 5-1 10-2 14-3 6-1 10-3 14-4l0 0c5-1 11 1 13 6l51 87c0 0 1 1 1 2 2 6-1 13-7 15-22 7-43 13-65 17-5 1-9 1-13 2-27 5-54 7-82 7l0 0 0 0z m327-114c-5 0-9-2-11-6l-50-87c-3-4-2-10 2-14 29-29 54-63 73-101 4-7 7-14 11-22 19-46 30-97 30-151l0 0 0 0c0-77-22-149-62-209-7-11-15-23-24-33-9-11-18-21-28-31l0 0 0 0 0 0c-4-4-5-10-2-14l50-87c0-1 1-2 2-3 4-5 11-5 16-1 58 52 104 117 134 190 6 15 11 29 15 44 14 46 21 94 21 144 0 108-34 209-92 291-11 16-23 31-37 46-13 14-26 28-41 41l0 0c-1 1-1 1-2 1-2 1-4 2-5 2z m-811-468l0 0c-1 0-2 0-3 0-6-1-10-8-9-14 34-166 149-302 302-366 30-12 61-21 93-28 32-6 66-10 100-10l0 0 0 0c40 0 79 5 117 14 7 1 14 3 22 5 6 2 13 5 20 7 1 0 2 1 3 1 6 3 8 10 4 16l-50 87c-3 5-8 7-13 6-14-4-28-7-42-9-3-1-6-1-8-2-18-2-35-3-53-3l0 0 0 0c-128 0-242 63-311 160-1 0-1 0-1 0-13 19-25 40-35 61-10 21-18 43-24 65-1 6-6 10-11 10l-101 0z" horiz-adv-x="1000" />

<glyph glyph-name="spin2" unicode="&#xe831;" d="M46 144l0 0c0 0-1 0-1 0-8 18-15 37-21 55-6 19-11 38-15 58-19 99-8 203 35 298 3 6 10 8 15 5 1 0 2 0 2-1l0 0 80-59c5-3 6-9 4-14-5-12-9-25-12-37-4-13-7-26-9-40-11-67-3-137 23-201 2-5 0-10-4-13l0 0-80-56c-5-4-12-2-16 3-1 0-1 1-1 2l0 0z m120 574l0 0c0 1 0 1 0 1 15 13 30 25 46 37 16 11 33 22 51 31 89 50 192 72 297 60 6-1 10-6 10-13 0-1-1-1-1-2l0 0-31-94c-2-5-8-8-13-7-13 0-27 0-40 0-14-1-27-2-40-4-68-11-133-40-186-84-4-3-10-3-14 0l0 0-79 58c-5 3-6 11-2 16 0 0 1 1 2 1l0 0z m588 65l0 0c0 0 1 0 1 0 17-10 34-21 50-32 16-12 31-25 46-38 74-69 127-160 148-262 2-6-2-12-9-13-1 0-1 0-2 0l0 0-100 1c-5 0-10 4-11 9-3 13-8 26-12 38-5 12-10 25-17 36-31 61-78 113-137 150-5 3-6 8-5 13l0 0 31 92c2 6 9 9 15 7 1 0 2-1 2-1l0 0z m244-535l0 0c0 0 0 0 0 0-4-20-9-39-15-57-7-19-14-37-22-55-44-92-114-170-205-221-6-3-13-1-16 4 0 1-1 2-1 2l0 0-30 94c-2 6 1 12 6 14 11 7 22 15 32 23 11 9 21 18 30 27 49 48 84 109 101 176 2 5 6 8 11 8l0 0 98-1c6 0 11-5 11-11 0-1 0-2 0-3l0 0z m-438-395l0 0c0 0 0 0 0 0-20-2-40-3-60-3-20 0-40 1-59 4-102 12-198 54-276 125-5 4-5 11 0 16 0 0 1 1 1 1l0 0 81 58c5 3 12 2 16-2 10-8 20-16 32-23 11-7 22-14 34-20 62-31 131-45 200-41 6 0 10-3 12-8l0 0 29-92c2-6-1-12-7-14-1-1-2-1-3-1l0 0z" horiz-adv-x="1000" />

<glyph glyph-name="spin3" unicode="&#xe832;" d="M494 850c-266 0-483-210-494-472-1-19 13-20 13-20l84 0c16 0 19 10 19 18 10 199 176 358 378 358 107 0 205-45 273-118l-58-57c-11-12-11-27 5-31l247-50c21-5 46 11 37 44l-58 227c-2 9-16 22-29 13l-65-60c-89 91-214 148-352 148z m409-508c-16 0-19-10-19-18-10-199-176-358-377-358-108 0-205 45-274 118l59 57c10 12 10 27-5 31l-248 50c-21 5-46-11-37-44l58-227c2-9 16-22 30-13l64 60c89-91 214-148 353-148 265 0 482 210 493 473 1 18-13 19-13 19l-84 0z" horiz-adv-x="1000" />

<glyph glyph-name="spin4" unicode="&#xe834;" d="M498 850c-114 0-228-39-320-116l0 0c173 140 428 130 588-31 134-134 164-332 89-495-10-29-5-50 12-68 21-20 61-23 84 0 3 3 12 15 15 24 71 180 33 393-112 539-99 98-228 147-356 147z m-409-274c-14 0-29-5-39-16-3-3-13-15-15-24-71-180-34-393 112-539 185-185 479-195 676-31l0 0c-173-140-428-130-589 31-134 134-163 333-89 495 11 29 6 50-12 68-11 11-27 17-44 16z" horiz-adv-x="1001" />

<glyph glyph-name="spin5" unicode="&#xe838;" d="M462 850c-6 0-11-5-11-11l0-183 0 0c0-6 5-11 11-11l69 0c1 0 1 0 1 0 7 0 12 5 12 11l0 183 0 0c0 6-5 11-12 11l-69 0c0 0 0 0-1 0z m250-47c-4 1-8-2-10-5l-91-158 0 0c-4-6-2-13 4-16l60-34c0-1 0-1 0-1 6-3 13-1 16 4l91 158c3 6 2 13-4 16l-61 35c-1 1-3 1-5 1z m-428-2c-2 0-4-1-6-2l-61-35c-5-3-7-10-4-16l91-157c0 0 0 0 0 0 3-6 10-8 16-5l61 35c5 4 7 11 4 16l-91 157c0 1 0 1 0 1-2 4-6 6-10 6z m620-163c-2 0-4 0-6-1l-157-91c0 0 0 0 0 0-6-3-8-10-5-16l35-61c4-5 11-7 16-4l157 91c1 0 1 0 1 0 6 3 7 11 4 16l-35 61c-2 4-6 6-10 5z m-810-4c-5 0-9-2-11-6l-35-61c-3-5-1-12 4-15l158-91 0 0c6-4 13-2 16 4l35 60c0 0 0 0 0 0 3 6 1 13-4 16l-158 91c-2 1-4 2-5 2z m712-235l0 0c-6 0-11-5-11-11l0-69c0-1 0-1 0-1 0-7 5-12 11-12l183 0 0 0c6 0 11 5 11 12l0 69c0 0 0 0 0 1 0 6-5 11-11 11l-183 0z m-794-5l0 0c-7 0-12-5-12-12l0-69c0 0 0 0 0-1 0-6 5-11 12-11l182 0 0 0c6 0 11 5 11 11l0 69c0 1 0 1 0 1 0 7-5 12-11 12l-182 0z m772-153c-4 0-8-2-10-6l-34-60c-1 0-1 0-1 0-3-6-1-13 4-16l158-91c6-3 13-1 16 4l35 61c3 5 1 12-4 15l-158 92 0 0c-2 1-4 1-6 1z m-566-5c-1 0-3 0-5-1l-157-91c0 0-1 0-1 0-5-3-7-10-4-16l35-61c3-5 10-7 16-4l157 91c0 0 0 0 0 0 6 3 8 10 5 16l-35 61c-3 3-7 6-11 5z m468-121c-2 0-4 0-6-1l-61-35c-5-4-7-11-4-16l91-157c0-1 0-1 0-1 3-6 11-7 16-4l61 35c5 3 7 10 4 16l-91 157c0 0 0 0 0 0-2 4-6 6-10 6z m-367-2c-4 0-8-2-10-6l-91-158c-3-6-1-13 4-16l61-35c5-3 12-1 15 4l92 158 0 0c3 6 1 13-5 16l-60 35c0 0 0 0 0 0-2 1-4 1-6 2z m149-58c-7 0-12-5-12-11l0-183 0 0c0-6 5-11 12-11l69 0c0 0 0 0 1 0 6 0 11 5 11 11l0 183 0 0c0 6-5 11-11 11l-69 0c-1 0-1 0-1 0z" horiz-adv-x="1000" />

<glyph glyph-name="spin6" unicode="&#xe839;" d="M855 9c-189-190-520-172-705 13-190 190-200 494-28 695 11 13 21 26 35 34 36 23 85 18 117-13 30-31 35-76 16-112-5-9-9-15-16-22-140-151-145-379-8-516 153-153 407-121 542 34 106 122 142 297 77 451-83 198-305 291-510 222l0 1c236 82 492-24 588-252 71-167 37-355-72-493-11-15-23-29-36-42z" horiz-adv-x="1000" />

<glyph glyph-name="firefox" unicode="&#xe840;" d="M504-137c-216 0-387 126-466 306-87 200-17 521 139 663l-6-156c8 9 68 12 78-1 32 62 136 109 220 110-32-26-106-124-99-174 40-13 103-13 136-15 10-6 8-40-12-68-27-36-97-49-97-49l8-106-77 38c-26-64 35-120 97-110 69 12 94 57 142 54 49-2 68-29 61-54-7-30-59-25-59-25-44-70-103-100-198-92 144-119 338-11 387 86 50 97 7 242-43 283 59-25 99-51 120-107 11 124-46 266-149 349 193-56 311-205 314-444 3-239-211-488-496-488z" horiz-adv-x="1000" />

<glyph glyph-name="chrome" unicode="&#xe841;" d="M498 850c-147-1-291-67-387-186l154-237c39 111 150 182 267 170l414-22c-42 84-108 157-196 208-79 46-166 67-252 67z m-416-226c-52-79-82-173-82-274 0-250 183-457 423-494l128 252c-116-22-233 39-281 146l-188 370z m885-94l-282-15c76-89 82-221 13-317l-226-347c94-6 190 15 278 66 216 125 304 387 217 613z m-467-11c-93 0-169-76-169-169s76-169 169-169 169 76 169 169-76 169-169 169z" horiz-adv-x="1000" />

<glyph glyph-name="opera" unicode="&#xe842;" d="M426-150c-568 0-568 1000 0 1000s567-1000 0-1000z m0 92c237 0 237 816 0 816s-238-816 0-816z" horiz-adv-x="851" />

<glyph glyph-name="ie" unicode="&#xe843;" d="M844 850c-81-1-181-46-281-106-239 35-498-103-509-386 60 93 224 257 367 301l0-13c-179-90-571-612-360-773 90-69 310 37 344 76 29-5 59-8 89-8 201 0 371 124 424 292l-301 0c-13-56-56-92-121-92-102 0-126 68-126 151l561 0c29 204-114 385-306 439 174 115 363 161 299-104l20 0c35 109 21 191-38 213-18 7-37 10-58 10-1 0-3 0-4 0z m-352-303c79 0 128-48 128-129l-252 0c0 77 46 129 124 129z m-367-422c58-83 149-145 256-171-77-58-226-84-266-52-48 40-36 124 10 223z" horiz-adv-x="944" />
</font>
</defs>
</svg>
